Menu

Search


Vote for us

Top Partner

Links

Let Me Jerk You
Releasedatum: 27.03.2015
Let.Me.Jerk.You.XXX.720p.WEBRiP.x264-TBP

Genre: Cumshot, Oral
Sprache(n): Englisch
Untertitel:
Audiostream: Stereo
Videocodec: MPEG-4 H.264
Videostream: WEBRip
Laufzeit: 99 Minuten
Größe: 2580 MB
Notizen: BackCover



Vote Raidrush.wsVote Woz.to


Lade kostenlos Let Me Jerk You XXX 720p WEBRiP x264-TBP mit Fullspeed!

Elegant Angel proudly presents, Let Me Jerk You. Featuring a combination of big names and brand new starlets, jerking cock, and coaxing cum. Starring Kristina Rose, Missy Stone, Gracie Glam and many more beautiful girls who want you to let them jerk you.

Nfo-File:
THE.BEST.PORN.GIVES

Let.Me.Jerk.You.XXX.720p.WEBRiP.x264-TBP

WEBSITE     : http://www.data18.com/movies/180609
TYPE        :  x264
SIZE        : 55 x 50MB

General
Complete name                            : tbp.letmejerku.mp4
Format                                   : MPEG-4
Format profile                           : Base Media
Codec ID                                 : isom
File size                                : 2.52 GiB
Duration                                 : 1h 39mn
Overall bit rate                         : 3 617 Kbps
Writing application                      : Lavf56.4.101

Video
ID                                       : 1
Format                                   : AVC
Format/Info                              : Advanced Video Codec
Format profile                           : [email protected]
Format settings, CABAC                   : Yes
Format settings, ReFrames                : 4 frames
Codec ID                                 : avc1
Codec ID/Info                            : Advanced Video Coding
Duration                                 : 1h 39mn
Bit rate                                 : 3 500 Kbps
Width                                    : 1 280 pixels
Height                                   : 720 pixels
Display aspect ratio                     : 16:9
Frame rate mode                          : Variable
Frame rate                               : 29.970 fps
Minimum frame rate                       : 29.097 fps
Maximum frame rate                       : 29.970 fps
Color space                              : YUV
Chroma subsampling                       : 4:2:0
Bit depth                                : 8 bits
Scan type                                : Progressive
Bits/(Pixel*Frame)                       : 0.127
Stream size                              : 2.43 GiB (97%)
Writing library                          : x264 core 115
Encoding settings                        : cabac=1 / ref=3 / deblock=1:0:0 / analyse=0x1:0x111 / me=hex / subme=7 / psy=1 / psy_rd=1.00:0.00 / mixed_ref=1 / me_range=16 / chroma_me=1 / trellis=1 / 8x8dct=0 / cqm=0 / deadzone=21,11 / fast_pskip=1 / chroma_qp_offset=-2 / threads=16 / sliced_threads=0 / nr=0 / decimate=1 / interlaced=0 / bluray_compat=0 / constrained_intra=0 / bframes=3 / b_pyramid=2 / b_adapt=1 / b_bias=0 / direct=1 / weightb=1 / open_gop=0 / weightp=2 / keyint=250 / keyint_min=25 / scenecut=40 / intra_refresh=0 / rc_lookahead=40 / rc=abr / mbtree=1 / bitrate=3500 / ratetol=1.0 / qcomp=0.60 / qpmin=10 / qpmax=51 / qpstep=4 / ip_ratio=1.41 / aq=1:1.00

Audio
ID                                       : 2
Format                                   : AAC
Format/Info                              : Advanced Audio Codec
Format profile                           : LC
Codec ID                                 : 40
Duration                                 : 1h 39mn
Bit rate mode                            : Constant
Bit rate                                 : 113 Kbps
Channel(s)                               : 2 channels
Channel positions                        : Front: L R
Sampling rate                            : 44.1 KHz
Compression mode                         : Lossy
Stream size                              : 80.3 MiB (3%)
THE.BEST.PORN.GIVES Let.Me.Jerk.You.XXX.720p.WEBRiP.x264-TBP WEBSITE : http://www.data18.com/movies/180609 TYPE : x264 SIZE : 55 x 50MB General Complete name : tbp.letmejerku.mp4 Format : MPEG-4 Format profile : Base Media Codec ID : isom File size : 2.52 GiB Duration : 1h 39mn Overall bit rate : 3 617 Kbps Writing application : Lavf56.4.101 Video ID : 1 Format : AVC Format/Info : Advanced Video Codec Format profile : [email protected] Format settings, CABAC : Yes Format settings, ReFrames : 4 frames Codec ID : avc1 Codec ID/Info : Advanced Video Coding Duration : 1h 39mn Bit rate : 3 500 Kbps Width : 1 280 pixels Height : 720 pixels Display aspect ratio : 16:9 Frame rate mode : Variable Frame rate : 29.970 fps Minimum frame rate : 29.097 fps Maximum frame rate : 29.970 fps Color space : YUV Chroma subsampling : 4:2:0 Bit depth : 8 bits Scan type : Progressive Bits/(Pixel*Frame) : 0.127 Stream size : 2.43 GiB (97%) Writing library : x264 core 115 Encoding settings : cabac=1 / ref=3 / deblock=1:0:0 / analyse=0x1:0x111 / me=hex / subme=7 / psy=1 / psy_rd=1.00:0.00 / mixed_ref=1 / me_range=16 / chroma_me=1 / trellis=1 / 8x8dct=0 / cqm=0 / deadzone=21,11 / fast_pskip=1 / chroma_qp_offset=-2 / threads=16 / sliced_threads=0 / nr=0 / decimate=1 / interlaced=0 / bluray_compat=0 / constrained_intra=0 / bframes=3 / b_pyramid=2 / b_adapt=1 / b_bias=0 / direct=1 / weightb=1 / open_gop=0 / weightp=2 / keyint=250 / keyint_min=25 / scenecut=40 / intra_refresh=0 / rc_lookahead=40 / rc=abr / mbtree=1 / bitrate=3500 / ratetol=1.0 / qcomp=0.60 / qpmin=10 / qpmax=51 / qpstep=4 / ip_ratio=1.41 / aq=1:1.00 Audio ID : 2 Format : AAC Format/Info : Advanced Audio Codec Format profile : LC Codec ID : 40 Duration : 1h 39mn Bit rate mode : Constant Bit rate : 113 Kbps Channel(s) : 2 channels Channel positions : Front: L R Sampling rate : 44.1 KHz Compression mode : Lossy Stream size : 80.3 MiB (3%)

 

Sitemap